hey guiz check out my vocal trance mix

Discussion in 'Entertainment' started by FapFap, Mar 24, 2008.

  1. FapFap

    FapFap New Member

    Joined:
    Jul 31, 2006
    Messages:
    1,705
    Likes Received:
    0
    Location:
    Jacksonville
    http://rapidshare.com/files/101893375/particleeffect_-_march_vocals.mp3.html

    TRACK 01 AUDIO
    TITLE "DT8 Project - Hold Me Till The End (12inch' Club Mix)"
    INDEX 01 00:00:00

    TRACK 02 AUDIO
    TITLE "Armin Van Buuren Ft. Mic Burns Vs Tiesto - Lethal State 2007 (XDR Mashup)"
    INDEX 01 06:42:00

    TRACK 03 AUDIO
    TITLE "Agnelli & Nelson Pres. A & N Project - Wear That Dress (Agnelli & Nelson Club Mix)"
    INDEX 01 12:50:00

    TRACK 04 AUDIO
    TITLE "Ferry Corsten - Beautiful"
    INDEX 01 21:40:00

    TRACK 05 AUDIO
    TITLE "Insignia - Piano In The Rain (Red Square Mix)"
    INDEX 01 26:10:00

    TRACK 06 AUDIO
    TITLE "DJ Shah ft. Adrina Thorpe - Who Will Find Me (Original Mix)"
    INDEX 01 33:35:00

    TRACK 07 AUDIO
    TITLE "John O'Callaghan with Audrey Gallagher - Big Sky (Agnelli & Nelson Remix)"
    INDEX 01 41:40:44

    TRACK 08 AUDIO
    TITLE "Rex Mundi vs. Ronski Speed - The Perspective Space (Markus Schulz mix)"
    INDEX 01 49:59:00

    TRACK 09 AUDIO
    TITLE "Flash Brothers feat Tiff Lacey - Stay (Noel Sanger Remix)"
    INDEX 01 58:00:00

    TRACK 10 AUDIO
    TITLE "Above & Beyond - Home (Above & Beyond Club Mix)"
    INDEX 01 64:30:00
     
    Last edited: Mar 24, 2008
  2. FapFap

    FapFap New Member

    Joined:
    Jul 31, 2006
    Messages:
    1,705
    Likes Received:
    0
    Location:
    Jacksonville
  3. Panoptimist

    Panoptimist Put a bangin' donk on it.

    Joined:
    Oct 17, 2005
    Messages:
    16,807
    Likes Received:
    0
    Location:
    New York Shitfaced.
    Thanks, will check it out.
     
  4. Naturally Baked

    Naturally Baked Active Member

    Joined:
    Sep 24, 2007
    Messages:
    27,942
    Likes Received:
    0
    Location:
    Detroit, Murder Mitten
    Listening now!!

    Like it so far :big grin:
     

Share This Page